Closed

Mencoder / FFMPEG Compress Mp4 Size

Mencoder / FFMPEG Compress Mp4 Size

I am trying to get the command line code to get the following output of converting an avi about 12 minutes duration to a mp4 of this meta data, the avi is about 120mb-150mb and the output will be around 20-30mb but very clear still.

Let me know if you know how, prefer to know the solution & test before paying.

Metadata:

major_brand : isom

minor_version : 1

compatible_brands: isom

creation_time : 2011-10-16 18:10:25

Duration: 00:12:08.78, start: 0.000000, bitrate: 196 kb/s

Stream #0.0(und): Video: h264 (High), yuv420p, 640x360 [PAR 1:1 DAR 16:9], 1

62 kb/s, 15 fps, 15 tbr, 15 tbn, 30 tbc

Metadata:

creation_time : 1970-01-01 00:00:00

Stream #0.1(und): Audio: aac, 44100 Hz, 2 channels (FC), s16, 31 kb/s

Skills: PHP, Software Architecture

See more: ffmpeg compress mp4, mp4 avi, compress mp4 mencoder, ffmpeg mp4 compress, mencoder compress mp4, video converting, size , i am trying to get this, hz, fps, ffmpeg video, dar, ffmpeg h264 aac, audio video bitrate, ffmpeg audio output, ffmpeg meta data, ffmpeg output, mp4 ffmpeg, code ffmpeg, aac php, command ffmpeg, tbn, video stream metadata, ffmpeg php mencoder, php mencoder

About the Employer:
( 1 review ) Singapore, Singapore

Project ID: #1252102

2 freelancers are bidding on average $33 for this job

edujoseg

Hi, i can help you. I'm expert on ffmpeg. I can use an piece of your file (or whole file) for tests, then when output be clean, look good and format/size is correct, then will send ffmpeg parameters, you test and all o More

$35 USD in 0 days
(22 Reviews)
4.8
goshev

I have a few compression options for that. You may select the on which will best fit your needs. The size of the output file of course will depend on a few things I can explain if you select my bid.

$30 USD in 0 days
(0 Reviews)
0.0